14.09.1800:20 Uhr Dance 2018 Dance320 kbit/s 0 / 0537 Hits VID P2P DDL 0 Kommentare | Ancient Aliens Season 13 (2018) | Telécharger

+ ShareSpark.net »  :::: Bollywood Zone » Bollywood Movies (Original Rips)
|- Padmaavat 2018 x264 Esub HD 720p Hindi GOPISAHI

Weekend Pay And Play 50% Off

Padmaavat 2018 x264 Esub HD 720p Hindi GOPISAHI

0 Members and 1 Guest are viewing this topic.

March 28, 2018, 07:05:15 AM
  • Addic7ed
  • Special Member
  • ****
  • Topic Author
  • Thank You: 401
  • Reputation: 90
  • Activity:
    0.8%
  • Country: in
  • Posts: 815
  • Topics: 770
  • Join Date: Oct 2013
  • ShareSpark Member

Format                         : Matroska
Format version                 : Version 4 / Version 2
File size                      : 572 MiB
Duration                       : 2 h 42 min
Overall bit rate               : 491 kb/s
Movie name                     : Padmaavat 2018 GOPISAHI

Video
Format                         : AVC
Codec ID                       : V_MPEG4/ISO/AVC
Duration                       : 2 h 42 min
Bit rate                       : 400 kb/s
Width                          : 1 280 pixels
Height                         : 720 pixels
Display aspect ratio           : 2.35:1
Frame rate mode                : Constant
Frame rate                     : 30.000 FPS
Stream size                    : 466 MiB (81%)
Title                          : GOPISAHI
Writing library                : x264 core 155 r2893 b00bcaf
Language                       : Hindi

Audio
Format                         : AAC
Duration                       : 2 h 42 min
Bit rate                       : 88.7 kb/s
Channel(s)                     : 6 channels
Channel positions              : Front: L C R, Side: L R, LFE
Sampling rate                  : 44.1 kHz
Frame rate                     : 43.066 FPS (1024 SPF)
Compression mode               : Lossy
Stream size                    : 103 MiB (18%)
Title                          : GOPISAHI
Language                       : Hindi

Text
Language                       : English











Share this topic on FacebookShare this topic on GoogleShare this topic on MySpaceShare this topic on TwitterShare this topic on Yahoo




Tags:
 

Related Topics




Back to top