Celebrities | Dokumentární | Exercise

+ ShareSpark.net »  :::: Bollywood Zone » Bollywood Movies (Original Rips) » Small Size Bollywood Movies
|- Khajoor Pe Atke 2018 x264 720p TV RIP Hindi GOPISAHI

Add 1000 Get 100 Back

Khajoor Pe Atke 2018 x264 720p TV RIP Hindi GOPISAHI

0 Members and 1 Guest are viewing this topic.

August 09, 2018, 02:52:27 PM
  • Elite Forces
  • ****
  • Topic Author
  • Thank You: 1112
  • Reputation: 485
  • Activity:
    100%
  • Country: pk
  • Posts: 1203
  • Topics: 586
  • Join Date: Mar 2015
  • ShareSpark Member





Format : Matroska

Format version : Version 4 / Version 2

File size : 563 MiB

Duration : 1 h 52 min

Overall bit rate : 698 kb/s

Movie name : Khajoor Pe Atke 2018 GOPISAHI


Video

Format : AVC

Format/Info : Advanced Video Codes

Format settings, ReFrames : 16 frames

Codec ID : V_MPEG4/ISO/AVC

Duration : 1 h 52 min

Bit rate : 599 kb/s

Width : 1 276 pixels

Height : 536 pixels

Display aspect ratio : 2.40:1

Frame rate mode : Constant

Frame rate : 29.970 (30000/1001) FPS

Color space : YUV

Chroma subsampling : 4:2:0

Bit depth : 8 bits

Scan type : Progressive

Bits/(Pixel*Frame) : 0.029

Stream size : 483 MiB (86%)

Title : GOPISAHI

Writing library : x264 core 155 r2901 7d0ff22


Audio

Format : AAC

Format/Info : Advanced Audio Codec

Duration : 1 h 52 min

Bit rate : 96.0 kb/s

Channel(s) : 2 channels

Channel positions : Front: L R

Sampling rate : 48.0 kHz

Frame rate : 46.875 FPS (1024 SPF)

Compression mode : Lossy

Delay relative to video : -21 ms

Stream size : 77.6 MiB (14%)

Title : GOPISAHI

Language : Hindi




 :ss:











 :download:























Share this topic on FacebookShare this topic on GoogleShare this topic on MySpaceShare this topic on TwitterShare this topic on Yahoo



Thanks given by:


Tags:
 

Related Topics

  Subject / Started by Replies Last post
0 Replies
472 Views
Last post March 28, 2018, 07:05:15 AM
by jattsahi2
0 Replies
452 Views
Last post May 19, 2018, 01:45:58 PM
by Special26
0 Replies
572 Views
Last post May 19, 2018, 04:59:46 PM
by shahzaibjaan
0 Replies
426 Views
Last post August 01, 2018, 06:24:18 PM
by shahzaibjaan
0 Replies
473 Views
Last post August 08, 2018, 07:52:26 PM
by shahzaibjaan



Back to top