Serienkalender | The Miracle We Met | Treme - Allgemein

+ ShareSpark.net »  :::: Bollywood Zone » Bollywood Movies (Original Rips) » Small Size Bollywood Movies
|- Bodyguard 2011 x264 720p Esub BluRay Hindi GOPISAHI

10% Off Cashback Carnival

Bodyguard 2011 x264 720p Esub BluRay Hindi GOPISAHI

0 Members and 1 Guest are viewing this topic.

August 07, 2018, 01:17:27 PM
  • Elite Forces
  • ****
  • Topic Author
  • Thank You: 1235
  • Reputation: 498
  • Activity:
    100%
  • Country: pk
  • Posts: 1428
  • Topics: 747
  • Join Date: Mar 2015
  • ShareSpark Member
Bodyguard 2011 x264 720p Esub BluRay Hindi GOPISAHI








Format : Matroska
Format version : Version 4 / Version 2
File size : 651 MiB
Duration : 2 h 10 min
Overall bit rate : 696 kb/s
Movie name : Bodyguard 2011 GOPISAHI

Video
Format : AVC
Format/Info : Advanced Video Codec
Codec ID : V_MPEG4/ISO/AVC
Duration : 2 h 10 min
Bit rate : 599 kb/s
Width : 1 280 pixels
Height : 544 pixels
Display aspect ratio : 2.35:1
Frame rate mode : Constant
Frame rate : 23.976 (24000/1001) FPS
Color space : YUV
Chroma subsampling : 4:2:0
Bit depth : 8 bits
Scan type : Progressive
Bits/(Pixel*Frame) : 0.036
Stream size : 560 MiB (86%)
Title : GOPISAHI
Writing library : x264 core 155 r2901 7d0ff22

Audio
Format : AAC
Duration : 2 h 10 min
Bit rate : 96.0 kb/s
Channel(s) : 2 channels
Channel positions : Front: L R
Sampling rate : 48.0 kHz
Frame rate : 46.875 FPS (1024 SPF)
Compression mode : Lossy
Delay relative to video : 1 s 509 ms
Stream size : 89.3 MiB (14%)
Title : GOPISAHI
Language : Hindi

Text
Language : English





 :ss:












 :download:























Share this topic on FacebookShare this topic on GoogleShare this topic on MySpaceShare this topic on TwitterShare this topic on Yahoo



Thanks given by:


Tags:
 

Related Topics




Back to top